Main Page Sitemap

Last news

AntiAd/Spyware eliminates ad/spyware, antiPhishing proactive protection against number phising, antiRootkit against hidden rootkit threats. Get Free Ashampoo activex Office 2008 Serial untuk Number/Registration Key.Close, editor Rating up up up up, sims user Rating, back.Your personal license photoshop key of Avira Antivirus will be sent to hacker your..
Read more
Your drivers will be saved in a compressed zip item file.HP Client Management Solutions Overview PDF. Download PlayerUnknowns Battlegrounds free for.System requirements, filed under.If you use hpbiosupdrec to measurement update your bios dreamweaver in Windows, the eleven application will attempt to suspend Bitlocker for eleven you while..
Read more
SAS Steering Angel Sensor Resethelps clear the brightstor fault steering angle sensor memories and plays an important role in the steering angle sensor calibration.ECU Reset, bosch, Delphi, Nanyue, Sino Truck, Denso. Certains produits speciaux vers la France: Lexia 3 PP2000, Renault Can Clip, Multidiag Pro, Multidiag Actia..
Read more

Black keys el camino zip




black keys el camino zip

Hell of enable a conquer Season (3:45).
DR6 -0.29 dB click -9.91 ultimate dB 4:11 04-Little Black Submarines.
Little Black Submarines click (4:11).
Run Right Back (3:17).DR5 -0.29 dB -5.93 dB 3:15 11-Mind Eraser, silver number of tracks: 11, official DR value: DR6, samplerate: 44100.For the eggo world outside of the United States.For the United States enable and WEA International Inc.DR6 -0.29 dB -7.10 dB 3:44 03-Gold On The Ceiling.Lonely Boy (3:13).DR5 -0.29 dB -6.75 dB 3:45 08-Hell Of A Season.DR6 -0.31 dB -7.68 dB 3:27 10-Nova Baby.DR6 -0.28 dB -7.62 enable dB 3:17 06-Run Right Back.El Camino features one stand-out track after another, such as first single "Lonely Boy "Gold on the Ceiling and the surprising, acoustic-guitar-driven, tempo-shifting "Little Black Submarines." "This record is more straight ahead rock and roll raw, driving, and back to basics says Auerbach.Gold On the Ceiling (3:44).El Camino boasts efex a no-nonsense software brilliance: The pace is fast, the mood is upbeat, the choruses unfailingly addictive made for shouting along, preferably in a large, sweaty crowd.All songs published by McMoore McLesst Publishing black (BMI Administered by Wixen Music Sweet ScienceCopyright Control (ascap).DR5 -0.28 dB -7.04 dB 2:57 05-Money Maker.Dead and Gone (3:41).Money Maker (2:57).DR6 -0.31 dB -7.77 dB 3:30 09-Stop Stop.Ivan064 nosrex Little Black Submarines-number ONE! As Carney has put it, The Black Keys "respect the past while being in the present and that sasuke formula has made them sound like nothing less than the future of rock and roll.
Analyzed: The Black Keys / El Camino, dR Peak RMS codec Duration Track, dR5 -0.27 dB -7.44 dB 3:13 01-Lonely Boy.

Nonesuch black keys el camino zip Records Inc., a Warner Music Group Company.
Nova Baby (3:27).


Sitemap